101 guitars lossless

#NBRAudio #NBRMusic[lossless] - audiophile - Best of Guitar Acoustic - Hi-End Audiophile Music - NBR Music[lossless] - audiophile - Best of Guitar Acousti... rv toyota dolphin Apr 3, 2021 · Custom Guitars Starting at $329. Route 101 Guitars is an award-winning custom guitar builder that offers wholesale pricing directly to the public. Hundreds of options to choose from. You choose. We build. Be yourself. For more information, please visit www.route101guitars.com. The book basically has 101 famous guitars. It tells the story behind each of the guitars. Like who's guitar, how they got it, the year and model of the guitar, and all kind of other interesting facts about it. Each guitar has detailed photo's of it. All the pages are in color and have tons of cool photos to add to the story.EQ All Star – Best Guitar Instrumentals Vol. 2 (2012) [FLAC] 1. The Long and Winding Road (Instrumental).flac 2. Tequila Sunrise (Instrumental).flac 3. Save the Best for Last (Instrumental).flac 4. Nobody Know … aussie rescue california Brands. Clear All. S101 Guitars. Used S101 Guitars D4410 Acoustic Guitar.101GUITARS • Custom Painted Guitars • Unique Effects Stomp Boxes Amps FX Beautiful Guitars Electric Guitars Famous People & Stars Guitarists Guitars Jimi Hendrix … katy mills walmart www.guitars101.com-topics-lossless-audio-bootlegs-20140817 directory listing Skip to main content Due to a planned power outage on Friday, 1/14, between 8am-1pm PST, some services may be impacted. Internet Archive logo A line drawing of the Internet Archive headquarters building façade. Search icon An illustration of a magnifying glass. Search iconGUITAR INTERNATIONAL "The first thing that grabs you about Star Guitars is the book's front cover cut out that frames the psychedelic Cream days axe of Eric Clapton, known as The Fool. Open the hardbound book and a colorful montage of album covers and posters featuring famous guitarists and their guitars gets the adrenaline pumping.Overview. Quilter bills its 101 Mini Reverb 50-Watt Guitar Head as a sort of missing link between a guitar players effects and speaker cabinet. With a reimagined three-knob EQ section (Bass, Mid, and Treble), the 101 proves to be quite versatile across the frequency spectrum. Quilter does this by giving the Mid an aggressive "bite" on the ... cuddle gifsLossless Audio Bootlegs | Page 1101 | Guitars101 - Guitar Forums Home Forums Music Files Bootlegs Lossless Audio Bootlegs Filters Prev 1 … 1099 1100 1101 …EQ All Star – Best Guitar Instrumentals Vol. 1 (2012) [FLAC] 1. What a Wonderful World (Instrumental).flac 2. Beauty and the Beast (Instrumental).flac 3. Right Here Waiting (Instrumental).flac 4. Candle in the Wind (Instrumental).flac 5. Sweet Child O’mine (Instrumental).flac 6. Have I Told You Lately (Instrumental).flac 7. generac 24kw specs Lossless Audio Bootlegs | Page 1101 | Guitars101 - Guitar Forums Home Forums Music Files Bootlegs Lossless Audio Bootlegs Filters Prev 1 … 1099 1100 1101 1102 1103 … 2488 Next Rolling Stones - Fleet Center, Boston; March 22, 1999 Soundboard the accountant Nov 5, 2017 7 2K Mar 6, 2021 by ec1961jpFilename D:\FLAC\101 Strings Instrumental Gold\CD2\07. 101 Strings - Raindrops Keep Falling on My Head.wav Pre-gap length 0:00:02.14 Peak level 98.8 % Track quality 99.9 % Test CRC C27B238C Copy CRC C27B238C Accurately ripped (confidence 1) [6614BFA4] Copy OK Track 8 Filename D:\FLAC\101 Strings Instrumental Gold\CD2\08. 101 Strings ...Everything you need to know before you step into a paint store Every item on this page was curated by an ELLE Decor editor. We may earn commission on some of the items you choose to buy. Here's what you need know to find the perfect paint p...Custom Guitars Starting at $329. Route 101 Guitars is an award-winning custom guitar builder that offers wholesale pricing directly to the public. Hundreds of options to choose from. You choose. We build. Be yourself. For more information, please visit www.route101guitars.com.These are the guitars so famous that their names are often household words: B. B. King s Lucille, Eric Clapton s Blackie, Stevie Ray Vaughan s First Wife, Billy F Gibbons Pearly Gates, Neil Young...Custom Guitars Starting at $329 Route 101 Guitars is an award-winning custom guitar builder that offers wholesale pricing directly to the public. Hundreds of options to choose from. You choose. We build. Be yourself. For more information, please visit www.route101guitars.com Comment viewing optionsFirst Torrent on guitars101 (no tracker needed): let's see if this will work EDGE Jul 31, 2020 2 3 4 70 40K Nov 12, 2022 by dethdealer6669 Pink Floyd 1987-09-21 Toronoto, Canada FLAC/AUD (Silver CD) mediaaddict Sep 25, 2020 14 2K a moment ago by mediaaddict D Rush 2002-07-06 SPAC, Saratoga NY (Master DAT Aud/FLAC) dssman 12 h ago 2 111 32 m ago٢٢ شوال ١٤٣٧ هـ ... http://audiohackr.comIn this video, we'll talk about some common audio file formats and their respective uses. By the end of this video, ... lowes delta shower #NBRAudio #NBRMusic[lossless] - audiophile - Best of Guitar Acoustic - Hi-End Audiophile Music - NBR Music[lossless] - audiophile - Best of Guitar Acousti...EQ All Star – Best Guitar Instrumentals Vol. 1 (2012) [FLAC] 1. What a Wonderful World (Instrumental).flac 2. Beauty and the Beast (Instrumental).flac 3. Right Here Waiting (Instrumental).flac 4. Candle in the Wind (Instrumental).flac 5. Sweet Child O’mine (Instrumental).flac 6. Have I Told You Lately (Instrumental).flac 7. If you have any questions about Route 101 Guitars, or need set up or tone advice, our guitar Techs will be happy to assist you. For more information please call our guitar techs directly @ (805) 641-3500 or e-mail [email protected] Why We Started Route 101 Guitars. wire transfers usaa #NBRAudio #NBRMusic[lossless] - audiophile - Best of Guitar Acoustic - Hi-End Audiophile Music - NBR Music[lossless] - audiophile - Best of Guitar Acousti... lanky box youtube Practical Music Theory 101 For Guitar. P2P | 11 March 2019 | 9.83 GB. If you answered YES to these questions, then you're in the right place!Aug 26, 2021 · Nearly all major brands make a solid-body guitar, whether that’s Fender with its Stratocaster, Telecaster, and Jazzmaster lines, or Gibson with models like the SG and Les Paul’s own namesake model. Different Types of Electric Guitar: Archtop Electric Electric guitars come in many forms, but they broadly fit into one of two categories. quizlet com login Album: Classical Guitar 101 Label: Warner Music Group Released: 2020 Genre: Classical Guitar Country: International Duration: 08:28:29 Tracklisting: 01. Espagnoletta - Gregorio Paniagua & Atrivm Mvsicæ Madrid 02. Cavatina - Craig Ogden 03. Cantos de España, Op. 232: III. Sous le Palmier - Duo Llobet 04. Cantos de España, Op. 232: IV ...Custom Guitars Starting at $329 Route 101 Guitars is an award-winning custom guitar builder that offers wholesale pricing directly to the public. Hundreds of options to choose from. You choose. We build. Be yourself. For more information, please visit www.route101guitars.com Comment viewing optionsAug 27, 2014 · www.guitars101.com-topics-lossless-audio-bootlegs-20140817 directory listing Skip to main content Due to a planned power outage on Friday, 1/14, between 8am-1pm PST, some services may be impacted. Internet Archive logo A line drawing of the Internet Archive headquarters building façade. Search icon An illustration of a magnifying glass. Search icon whoville hair styles About Press Copyright Contact us Creators Advertise Developers Terms Privacy Policy & Safety How YouTube works Test new features Press Copyright Contact us Creators ...Whether you just purchased your guitar, or are revisiting your old friend after many years apart, this course will get you up to speed quickly. In an easy-to...EQ All Star – Best Guitar Instrumentals Vol. 2 (2012) [FLAC] 1. The Long and Winding Road (Instrumental).flac 2. Tequila Sunrise (Instrumental).flac 3. Save the Best for Last (Instrumental).flac 4. Nobody Know (Instrumental).flac 5. Nothing Gonna Change My Love for You (Instrumental).flac 6. Kiss from a Rose (Instrumental).flac 7.Few instruments are more synonymous with a musical genre than an electric guitar with rock ‘n’ roll. An electric guitar can do much more than blast rock music. From jazz, funk, and heavy metal to country, reggae, and shoegaze indie rock, electric guitars are ubiquitous in music since their invention. <br> ## What Is an Electric Guitar? An electric guitar is a guitar that produces sound by ...Nhạc LOSSLESS Chất Lượng Cao Không Lời | Guitar Hòa Tấu Rumba Hay Nhất Mọi Thời Đại Cổ Máy Nhạc Xưa#nhackhongloihaynhatoithoidai Album: Classical Guitar 101 Label: Warner Music Group Released: 2020 Genre: Classical Guitar Country: International Duration: 08:28:29 Tracklisting: 01. Espagnoletta - Gregorio Paniagua & Atrivm Mvsicæ Madrid 02. Cavatina - Craig Ogden 03. Cantos de España, Op. 232: III. Sous le Palmier - Duo Llobet 04. Cantos de España, Op. 232: IV ... classified ksl EQ All Star – Best Guitar Instrumentals Vol. 1 (2012) [FLAC] 1. What a Wonderful World (Instrumental).flac 2. Beauty and the Beast (Instrumental).flac 3. Right Here Waiting (Instrumental).flac 4. Candle in the Wind (Instrumental).flac 5. Sweet Child O’mine (Instrumental).flac 6. Have I Told You Lately (Instrumental).flac 7.Oct 28, 2003 · Telecaster Discussion Forum route 101 Guitars is gone docrock55 Oct 28, 2003 Oct 28, 2003 #1 D docrock55 TDPRI Member Joined Apr 4, 2003 Posts 90 Location Portland, Oregon Sorry to see them go. They had a great concept and one of the best Tele copies around. I bought a Rincon (Tele copy) in 2000 and fell in love with it. what time does advanced auto close Route 101 Guitars can offer these high quality instruments because we are the manufacturer and we are selling direct to you. You can literally save 50% (hundreds of dollars) by purchasing your next guitar through Route 101 Guitars Direct.About Press Copyright Contact us Creators Advertise Developers Terms Privacy Policy & Safety How YouTube works Test new features Press Copyright Contact us Creators ...Apr 3, 2021 · Custom Guitars Starting at $329. Route 101 Guitars is an award-winning custom guitar builder that offers wholesale pricing directly to the public. Hundreds of options to choose from. You choose. We build. Be yourself. For more information, please visit www.route101guitars.com. Being both a guitar player and an artist, and then working for some years as a retail shop hand/ad agency runner/ad and graphics paste-up artist/desk-top publishing (DTP)/traditional illustrator/graphic designer (in that order – oh and other jobs like painting/decorating cutting lawns and preparing potatoes for fries when I was stuck for cash:) for various agencies … it x reader Filename D:\FLAC\101 Strings Instrumental Gold\CD2\07. 101 Strings - Raindrops Keep Falling on My Head.wav Pre-gap length 0:00:02.14 Peak level 98.8 % Track quality 99.9 % Test CRC C27B238C Copy CRC C27B238C Accurately ripped (confidence 1) [6614BFA4] Copy OK Track 8 Filename D:\FLAC\101 Strings Instrumental Gold\CD2\08. 101 Strings ...VA - 101 Guitar (Decca - 6 CDs) Lossless Artist: Various Artists Album: 101 Guitar Genre: Classical Year: 2012 Size : 1,7 Gb Time: 03:59:12 Audio codec: FLAC 1 01. Eduardo Fernández - Recuerdos De La Alhambra (04:46) 02. Eduardo Fernández - Suite española, Op.47 : No.3: Sevilla (04:36) 03. Pepe Romero - Suite española, Op.47 - Transcr.Feb 1, 2023 · FLAC Music Download. Lossless Music 16/44 to 24/192. Classics Flac. Classical CD, Vinyl, SACD. Hi-Res. 20000+ Items. Great Music Collection. SQLite format 3 @ , ,-â! ! ä É w !T www.guitars101.com-topics-lossless-audio-bootlegs-20140817.warc.gzputAÔÿt 9[FP www.guitars101.com-topics-lossl kqed tv daily schedule Custom Guitars Starting at $329 Route 101 Guitars is an award-winning custom guitar builder that offers wholesale pricing directly to the public. Hundreds of options to choose from. You choose. We build. Be yourself. For more information, please visit www.route101guitars.com Comment viewing optionsS101 Guitars Electric Guitars Related Categories | 0 Products Quick Search Tips: Try just one or two terms. Instead of using the search box, find your gear by clicking the product category tabs and other navigation links. Try varying the spelling to see if the word is spelled correctly. #NBRAudio #NBRMusic[lossless] - audiophile - Best of Guitar Acoustic - Hi-End Audiophile Music - NBR Music[lossless] - audiophile - Best of Guitar Acousti... Which quality for Vinyl Rip better? 16bit/44.1kHz. 24bit/96kHz how to get your w2 from walmart Acoustic guitar flat picking is how you handle the guitar strings using a pick. It is how you control the volume, tone and manage the clarity of your flatpicking. The right hand (in most cases) controls how you play the acoustic guitar and how it produces a sound as well. Concentration should be given to this right hand.(Easy Listening) 101 Strings Orchestra - 101 Strings Instrumental Gold Collector's Edition 3 CD's - 2007, FLAC (tracks), lossless » Easy Listening, Instrumental Pop (lossless) :: … grumbler raid shadow legends #NBRAudio #NBRMusic[lossless] - audiophile - Best of Guitar Acoustic - Hi-End Audiophile Music - NBR Music[lossless] - audiophile - Best of Guitar Acousti... activate.uhc.com card Feb 1, 2023 · FLAC Music Download. Lossless Music 16/44 to 24/192. Classics Flac. Classical CD, Vinyl, SACD. Hi-Res. 20000+ Items. Great Music Collection. Guitar 101: Anatomy of an Electric Guitar 34,199 views May 1, 2018 Continuing our Guitar 101 series, our own Chris McKee is going to show you the ins and outs of the electric guitar.... Feb 1, 2023 · FLAC Music Download. Lossless Music 16/44 to 24/192. Classics Flac. Classical CD, Vinyl, SACD. Hi-Res. 20000+ Items. Great Music Collection. This is a panic download of www.guitars101.com topics-lossless-audio-bootlegs as of 2014-08-17. Skip to main content Due to a planned power outage on Friday, 1/14, between 8am-1pm PST, some services may be impacted. Internet Archive logo A line drawing of the Internet Archive headquarters building façade. Search icon walamrt tire center Lossless ; Series ... Dog Day 101 - Holzman, Krantz - 5:03 3. Maze - Davis - 4:23 4. Shaggy Dog - Logan - 3:35 5. ... Mean Ol' Cinelu - Tunnell - 4:20 Состав: Adam Holzman: Guitar (Acoustic), Piano, Sound Effects, Main Performer, Sampled Guitar, Synthesizer Percussion, Producer, ...١ ذو القعدة ١٤٣٥ هـ ... www.guitars101.com topics-lossless-audio-bootlegs 20140817 ; Language: English ; Addeddate: 2014-08-27 12:17:57 ; Firstfiledate: 20140817225735.Quality: FLAC 24 bit / 88.2 kHz (Tracks) Artist: 101 Strings Orchestra Title: 101 Strings Plus Guitars Galore, Vol. 1 Released: 1967/2021 Style: Pop, Easy Listening, Instrumental RAR Size: 554 Mb Tracklist: 01. 101 Strings Orchestra - The Girl from Ipanema (2021 Remaster) (02:44) 02. 101 StringsS101 guitars are made by America Sejung Corporation (ASC). They also produce pianos under the Hobart M. Cable brand and other brands. As with most Asian manufacturers, they probably do OEM (Original Equipment Manufacture) for a number of other importers, who have their own brands applied.Album: Classical Guitar 101 Label: Warner Music Group Released: 2020 Genre: Classical Guitar Country: International Duration: 08:28:29 Tracklisting: 01. Espagnoletta - Gregorio Paniagua & Atrivm Mvsicæ Madrid 02. Cavatina - Craig Ogden 03. Cantos de España, Op. 232: III. Sous le Palmier - Duo Llobet 04. Cantos de España, Op. 232: IV ... flemington nail salon VA - 101 Guitar (Decca - 6 CDs) Lossless Artist: Various Artists Album: 101 Guitar Genre: Classical Year: 2012 Size : 1,7 Gb Time: 03:59:12 Audio codec: FLAC 1 01. Eduardo Fernández - Recuerdos De La Alhambra (04:46) 02. Eduardo Fernández - Suite española, Op.47 : No.3: Sevilla (04:36) 03. Pepe Romero - Suite española, Op.47 - Transcr. epic documentation for nurses Quality: FLAC 24 bit / 88.2 kHz (Tracks) Artist: 101 Strings Orchestra Title: 101 Strings Plus Guitars Galore, Vol. 1 Released: 1967/2021 Style: Pop, Easy Listening, Instrumental RAR Size: 554 Mb Tracklist: 01. 101 Strings Orchestra - The Girl from Ipanema (2021 Remaster) (02:44) 02. 101 StringsUriah heep - 1st May, 1984 at Logan Campbell Centre, Auckland (PRO) DVD. JUZZI.101 Strings Orchestra · Album · 1969 · 10 songs. Listen to 101 Strings Plus Guitars Galore, Vol. 2 (Remastered from the Original Master Tapes) on Spotify. 101 Strings Orchestra · … spooky on my block outfit Guitars 101 lossless bootlegs. Export audio as MP3, OGG, FLAC, AIFF, and WAV. 10 points · 2 years ago. Buy products such as 3/4 Size (36 Inch) Acoustic Guitar Bundle Junior / Travel Series by Hola! Music with D'Addario EXP16 Steel Strings, Padded Gig Bag, Guitar Strap and Picks, Model HG-36LB, Light Blue at Walmart and save.Lossless Audio Bootlegs Led Zeppelin Blues Brothers Chicago Stadium, Chicago (IL), United States 22nd January 1975 Label: Empress Valley Supreme Disc Catalog number: … fireplace tv stands at big lotsThese are the guitars so famous that their names are often household words: B. B. King’s Lucille, Eric Clapton’s Blackie, Stevie Ray Vaughan’s First Wife, Billy F Gibbons’ Pearly …These are the guitars so famous that their names are often household words: B. B. King’s Lucille, Eric Clapton’s Blackie, Stevie Ray Vaughan’s First Wife, Billy F Gibbons’ Pearly Gates, Neil... epson 3200 vs 3800 Everything you need to know before you step into a paint store Every item on this page was curated by an ELLE Decor editor. We may earn commission on some of the items you choose to buy. Here's what you need know to find the perfect paint p... bossier parish jail bookings 2022 This FX-101 is a resource that categorises and explains common guitar effects to find the tone you need. Contributed by David Jiang for the Roland Australia Blog INDEX A – ACOUSTIC SIMULATOR C – CHORUS, COMPRESSION/SUSTAIN D – DELAY, DISTORTION E – EQ F – FUZZ, FLANGER G – GATE H – HARMONISER L – LOOPER O – OVERDRIVE, OCTAVE/PITCH SHIFT P – PHASER An acoustic guitar can ring out loud and clear on its own thanks to its soundhole. However, an electric guitar (sometimes known as a "solid-body guitar") does not have a soundhole. Instead, it has magnetic pickups that "pick up" the vibrations of the metal strings. The metal coils inside these pickups transmit the sound signal to an amplifier, producing the powerful signature sound of an electric guitar.New links on GUITARS101 10/07/2013 Blue Oyster Cult - 1991-06-28 - Cleveland, OH (FM-FLAC) Bob Dylan - 1988-07-11 - Hamilton, Canada (AUD-FLAC) Bob Dylan - 2013-07-03 - Tuscaloosa, AL (AUD-FLAC) Bob Dylan - 2013-07-06 - Cincinnati, OH (AUD-FLAC) Deep Purple - 1973-06-24 - Nagoya JP (AUD-FLAC) Diana Krall - 2013-07-06 - Lucca, IT (FM-FLAC) Back to Catalogs. This full - line S101 Guitar Catalog was created for ASC in California in 2003. Photoshop was used for the entire project other than the spcification pages which were prepared in Illustrator. I did all the product photography and preparation, layout and design and logo design for this product line. lung memes Lossless Various Artists – Angle Mort Xtra (2004) [Vinyl FLAC] 23 November 2022 0 . Vinyl Rip Erra – Erra (2022) [FLAC]Lossless 2.4 GHz wireless for lag-free high fidelity gaming audio on PC, PlayStation 5, and PlayStation 4; Simultaneous Bluetooth for calls, music, and VoIP chat while gaming; Discord-certified microphone provides noise cancellation and natural sounding clarity; Signature Arctis sound to hear every detail for an audio advantage #NBRAudio #NBRMusic[lossless] - audiophile - Best of Guitar Acoustic - Hi-End Audiophile Music - NBR Music[lossless] - audiophile - Best of Guitar Acousti...torrent tracker with best lossless music. Website Worth: $ 7,900. Categories: ??? Similar? Yes 0 No 0. 2019 ram 2500 diesel oil capacity Filename D:\FLAC\101 Strings Instrumental Gold\CD2\07. 101 Strings - Raindrops Keep Falling on My Head.wav Pre-gap length 0:00:02.14 Peak level 98.8 % Track quality 99.9 % Test CRC C27B238C Copy CRC C27B238C Accurately ripped (confidence 1) [6614BFA4] Copy OK Track 8 Filename D:\FLAC\101 Strings Instrumental Gold\CD2\08. 101 Strings ...Back to Catalogs. This full - line S101 Guitar Catalog was created for ASC in California in 2003. Photoshop was used for the entire project other than the spcification pages which were prepared in Illustrator. I did all the product photography and preparation, layout and design and logo design for this product line.The Alshire/Somerset labels feature the renowned 101 Strings Orchestra, a household name in easy listening, and many other artists. It boasts 10,000 recordings of …Uriah heep - 1st May, 1984 at Logan Campbell Centre, Auckland (PRO) DVD. JUZZI. rent a rooom Filename D:\FLAC\101 Strings Instrumental Gold\CD2\07. 101 Strings - Raindrops Keep Falling on My Head.wav Pre-gap length 0:00:02.14 Peak level 98.8 % Track quality 99.9 % Test CRC C27B238C Copy CRC C27B238C Accurately ripped (confidence 1) [6614BFA4] Copy OK Track 8 Filename D:\FLAC\101 Strings Instrumental Gold\CD2\08. 101 Strings ...Practical Music Theory 101 For Guitar. P2P | 11 March 2019 | 9.83 GB. If you answered YES to these questions, then you're in the right place! elavon mobile merchant Album: Classical Guitar 101 Label: Warner Music Group Released: 2020 Genre: Classical Guitar Country: International Duration: 08:28:29 Tracklisting: 01. Espagnoletta - Gregorio Paniagua & Atrivm Mvsicæ Madrid 02. Cavatina - Craig Ogden 03. Cantos de España, Op. 232: III. Sous le Palmier - Duo Llobet 04. Cantos de España, Op. 232: IV ...First Torrent on guitars101 (no tracker needed): let's see if this will work EDGE Jul 31, 2020 2 3 4 70 40K Nov 12, 2022 by dethdealer6669 Pink Floyd 1987-09-21 Toronoto, Canada FLAC/AUD (Silver CD) mediaaddict Sep 25, 2020 14 2K a moment ago by mediaaddict D Rush 2002-07-06 SPAC, Saratoga NY (Master DAT Aud/FLAC) dssman 12 h ago 2 111 32 m ago#NBRAudio #NBRMusic[lossless] - audiophile - Best of Guitar Acoustic - Hi-End Audiophile Music - NBR Music[lossless] - audiophile - Best of Guitar Acousti... cute thank you gifs This is a panic download of www.guitars101.com topics-lossless-audio-bootlegs as of 2014-08-17. Now you know Guitars101 Lossy Audio Bootlegs Now that you ... aboutyou.verizonwireless Lossy Audio Bootlegs | Guitars101 - Guitar Forums Home Forums Music Files Bootlegs Lossy Audio Bootlegs Filters 1 2 3 … 2304 Next C Soft Cell - The Palace, Hollywood. L.A 17.11.83 (speed correction 2/2023) cactus40 9 h ago 1 84 2 h ago by Richie Muster M Enuff Z'Nuff - Demos Volume 1 MaroonMike 6 h ago 1 69 2 h ago by Matthew Fuzz KQuality: FLAC 24 bit / 88.2 kHz (Tracks) Artist: 101 Strings Orchestra Title: 101 Strings Plus Guitars Galore, Vol. 1 Released: 1967/2021 Style: Pop, Easy Listening, Instrumental RAR Size: 554 Mb Tracklist: 01. 101 Strings Orchestra - The Girl from Ipanema (2021 Remaster) (02:44) 02. 101 Strings S101 guitars are made by America Sejung Corporation (ASC). They also produce pianos under the Hobart M. Cable brand and other brands. As with most Asian manufacturers, they probably do OEM (Original Equipment Manufacture) for a number of other importers, who have their own brands applied.www.guitars101.com-topics-lossless-audio-bootlegs-20140817 directory listing Skip to main content Due to a planned power outage on Friday, 1/14, between 8am-1pm PST, some services may be impacted. Internet Archive logo A line drawing of the Internet Archive headquarters building façade. Search icon An illustration of a magnifying glass. Search iconwww.guitars101.com-topics-lossless-audio-bootlegs-20140817 directory listing Skip to main content Due to a planned power outage on Friday, 1/14, between 8am-1pm PST, some services may be impacted. Internet Archive logo A line drawing of the Internet Archive headquarters building façade. Search icon An illustration of a magnifying glass. Search icon globaltranz mc number Thank you for your interest in Guitars101.com. A forum community dedicated to guitar owners and enthusiasts. Come join the discussion about collections, displays, models, styles, amps, modifications, kits, reviews, …These are the guitars so famous that their names are often household words: B. B. King's Lucille, Eric Clapton's Blackie, Stevie Ray Vaughan's First Wife, Billy F Gibbons' Pearly Gates, Neil...Acoustic guitar flat picking is how you handle the guitar strings using a pick. It is how you control the volume, tone and manage the clarity of your flatpicking. The right hand (in most cases) controls how you play the acoustic guitar and how it produces a sound as well. Concentration should be given to this right hand.It’s no longer a secret that alternative energy is only going to get more popular and lucrative as we move into the future. According to Allied Market Research, the renewable energy sector had already grown into a $928 billion industry by 2... home for sale in philadelphia pa These are the guitars so famous that their names are often household words: B. B. King’s Lucille, Eric Clapton’s Blackie, Stevie Ray Vaughan’s First Wife, Billy F Gibbons’ Pearly Gates, Neil... Aug 17, 2014 · www.guitars101.com topics-lossless-audio-bootlegs 20140817. Item Preview. There Is No Preview Available For This Item. This item does not appear to have any files that can be experienced on Archive.org. Please download files in this item to interact with them on your computer. Few instruments are more synonymous with a musical genre than an electric guitar with rock ‘n’ roll. An electric guitar can do much more than blast rock music. From jazz, funk, and heavy metal to country, reggae, and shoegaze indie rock, electric guitars are ubiquitous in music since their invention. <br> ## What Is an Electric Guitar? An electric guitar is a guitar that produces sound by ... practice nha phlebotomy test These are the guitars so famous that their names are often household words: B. B. King s Lucille, Eric Clapton s Blackie, Stevie Ray Vaughan s First Wife, Billy F Gibbons Pearly Gates, Neil Young s Old Black, and many more. Here s the first-ever illustrated history of the actual guitars of the stars that made the music. Other best-selling guitar … my maytag washer won't spin www.guitars101.com-topics-lossless-audio-bootlegs-20140817 directory listing Skip to main content Due to a planned power outage on Friday, 1/14, between 8am …101 Strings ‎– 101 Strings Plus Trumpet - Vinyl LP Record - Very-Good+ Quality (VG+) ... Add to Cart Only 1 left! customized gift shops near me Lossy Audio Bootlegs | Guitars101 - Guitar Forums Home Forums Music Files Bootlegs Lossy Audio Bootlegs Filters 1 2 3 … 2304 Next C Soft Cell - The Palace, Hollywood. L.A 17.11.83 (speed correction 2/2023) cactus40 9 h ago 1 84 2 h ago by Richie Muster M Enuff Z'Nuff - Demos Volume 1 MaroonMike 6 h ago 1 69 2 h ago by Matthew Fuzz KFirst Torrent on guitars101 (no tracker needed): let's see if this will work EDGE Jul 31, 2020 2 3 4 70 40K Nov 12, 2022 by dethdealer6669 Pink Floyd 1987-09-21 Toronoto, Canada FLAC/AUD (Silver CD) mediaaddict Sep 25, 2020 14 2K a moment ago by mediaaddict D Rush 2002-07-06 SPAC, Saratoga NY (Master DAT Aud/FLAC) dssman 12 h ago 2 111 32 m agowww.guitars101.com-topics-lossless-audio-bootlegs-20140817 directory listing Skip to main content Due to a planned power outage on Friday, 1/14, between 8am … legal notice crossword clue